Форум » MP3, Lossless etc. » Stoned Jesus - 2011 - Stormy Monday (FLAC, Ukraine) » Ответить

Stoned Jesus - 2011 - Stormy Monday (FLAC, Ukraine)

Yarik: Stoned Jesus - Stormy Monday (2011 EP) 01. Stormy Monday (edit) 4:32 02. Drunk And Horny 2:16 03. Bear Cave 8:16 04. Stormy Monday (extended) 10:27 [more]Exact Audio Copy V1.0 beta 1 from 15. November 2010 EAC extraction logfile from 5. May 2011, 18:45 Stoned Jesus / Stormy Monday (EP) Used drive : TSSTcorpCDDVDW SH-S223F Adapter: 3 ID: 0 Read mode : Secure Utilize accurate stream : Yes Defeat audio cache : Yes Make use of C2 pointers : No Read offset correction : 6 Overread into Lead-In and Lead-Out : No Fill up missing offset samples with silence : Yes Delete leading and trailing silent blocks : No Null samples used in CRC calculations : Yes Used interface : Native Win32 interface for Win NT & 2000 Used output format : Internal WAV Routines Sample format : 44.100 Hz; 16 Bit; Stereo TOC of the extracted CD Track | Start | Length | Start sector | End sector --------------------------------------------------------- 1 | 0:00.25 | 4:32.33 | 25 | 20457 2 | 4:32.58 | 2:16.42 | 20458 | 30699 3 | 6:49.25 | 8:16.07 | 30700 | 67906 4 | 15:05.32 | 10:31.09 | 67907 | 115240 Range status and errors Selected range Filename D:\.www.AvaxHome.ru.lossless\Stoned Jesus - Stormy Monday (EP).wav Peak level 100.0 % Extraction speed 1.0 X Range quality 100.0 % Test CRC C4C0D6CC Copy CRC C4C0D6CC Copy OK No errors occurred AccurateRip summary Track 1 not present in database Track 2 not present in database Track 3 not present in database Track 4 not present in database None of the tracks are present in the AccurateRip database End of status report ==== Log checksum F06753D5AE7BBB07B5D9769EEEAF11FF1DE247369F2FA1494962CB5A2073838C ==== [/more] Stoned.Jesus.2011.Stormy.Monday.EP-lossless

Ответов - 4

666: жирнейшая ЕП, качаю и диск буду брать безусловно)

murella: Линк сдох, на вате, срутрекере и фс в лозлессе нет, на бэндкемпе альбома нет. Можно ли перезалить?

666: кстати у Игоря спрашивал чтобы на бендкемп залил тоже, присоединяюсь к просьбе)

Prog-Jester: мы винил, если по секрету, планируем, с тремя не вошедшими на ЕР, но записанными в тот же день треками) так шо стэй тюнд



полная версия страницы